Fragmented Mp4 Wiki


fragmented-mp4. It appears Robin Hely, Peter Burke and Jason Maling, all artists, are close friends. Kodi (formally known as XBMC) is an award-winning free and open source (GPL) software media player and entertainment hub that can be installed on Linux, OSX, Windows, iOS, and Android, featuring a. ISO fragmented MP4-based live ingest for Media Services uses a standard long-running HTTP POST request to transmit encoded media data that is packaged in fragmented MP4 format to the service. The sidx is the Segment Index and stores meta data of the precise byte range locations of the moof+mdat segments. On May 4, 2012, the remainder of the series aired on Nicktoons until the last episode on February 15, 2013. I'm going to show you how I get from Fraps to finished product. Media should be either splitted into file segments and use SegmentTemplate tag, either have a single segment + sidx box and use SegmentBase. Creator: ngoutte Created: 2010-10-12 Updated: 2013-04-03 ngoutte - 2010-10-12 I would like to know if Bento4 can create MP4 fragmented files ? ISMV and F4F Files are based on ISO 14496-12 but are not ISO MP4 File. Does/will/is it possible to add support for IIS Smooth Streaming Videos? The format is based on fragmented MP4 videos delivered over regular HTTP. See the full details in the post "Politics and News Rules & Guidelines. SharePoint is server software that's allied with document management, intranet and with content management. Hardware accelerated decoding for HD and UHD Supports HDR and HDR tone-mapping 360° video navigation Support for mp4 fragmented muxing Improvements for x265 encoding Video outputs and filters. It's incorporated into iOS and OSX platforms and works well on mobile and desktop Safari and most Android devices with some caveats. Activating the gem will print in the chat "True" or "False", toggling whether or not its enabled in higher tier gems that include it. Two profiles of the media ingest are defined covering the most common use cases. Support for the protocol is widespread in media players, web browsers, mobile devices, and streaming media servers. If you don't think that has enough detail try this: www. Blood and Blood Substitutes. , 2005 ) was used for internal mass. It is a command-line tool. Join others online or play offline in the world of Fragmented. The problem is mainly in sites that only have the MP4 option like VINE the native firefox player wont load so it will default to the flash player. #Game-Time; #Lets-Start-The-Game; #game. Findchips Pro brings fragmented sources of data together into a single platform and delivers accurate and contextual answers to your most strategic questions. 2912% of referenced xkcds. Fragmented partition structure on the USB flash drive. Notes: produces DASH manifest and chunk files, using fragmented MP4 by default can produce HLS additionally (or the HLS muxer works in a pinch) the produced files. Code Geass: Lelouch of the Re;surrection (コードギアス 復活のルルーシュ Kōdo Giasu: Fukkatsu no Rurūshu) is the new movie of the anime series, Code Geass directed by Gorō Taniguchi and produced by Sunrise. Summary Edit. m3u8 で出力される。. They’re great for cord cutters, people who want to improve the smart capabilities of their TV, anyone who uses Kodi and Plex to manage their own media, people who travel a lot, and more. 000000, bitrate: 31 kb/s Stream #0:0(und): Audio: aac (HE-AACv2) (mp4a / 0x6134706D), 44100 Hz, stereo, fltp, 30 kb/s (default) Metadata: handler. November 10th, 2016 MPEG-DASH sample streams and HLS test streams or m3u8 streams as they are often called, are important tools that you should have available throughout your development process. Microsoft returned to its roots with Windows 10, and with it added the successor to its now-defunct Internet Explorer browser: Microsoft Edge. This code was * written by Colin Plumb in 1993, no copyright is claimed. 50 It's interesting, I've never had problems getting my insurer to pay for anything that I really needed. It includes the Kaltura HTML5 Player and an experimental VideoJS Player. mp4 -c:a copy -c:v copy -f mp4 -movflags dash fragmented. The reason seems > to be the qtdemux that is forwarding the seek events upstream if the mp4 > file is fragmented. , a DVD player, or a computer DVD drive with a software. MPEG-4 Config: Audio Stream - ObjectTypeIndication 0x40 MPEG-4 Audio AAC LC - 2 Channel(s) - SampleRate 22050 Self-synchronized If I use DMG to create an HE-AAC v1 from another audiofile (like MP3) it does the full magic on the audio including SBR and magically the explicit SBR signalling is there, see below! mp4box. Technical details: Associated programs: Smooth Streaming, Microsoft Silverlight: Wiki. With Vera VanGuard, Paul Logan, Amy Johnston, Kyle Clarke. Images (0). Lowering cloud infrastructure costs up to 75%, the seamless proxy editing feature of EFSv makes cloud editing irresistibly affordable while allowing you to leverage your tools of choice and the workflows you love. After realizing that existing financial data providers offered incomplete and fragmented datasets, I set out to create the most comprehensive datasets of analyst recommendations, dividend declarations, earnings announcements, insider trades and other financial data points and began making that data available through our website and our daily. and released in 2009. The official site of John Denver, an American singer-songwriter, actor, activist and humanitarian. 1087 (08 Jun 2016) - Improved Ext4 and Ext3 file system support - Improved Fat32 partition file scanning - Optimized Secure Overwrite on Windows 10 - Enhanced drive and partition detection - Improved keyboard navigation - Minor GUI improvements - Minor bug fixes v1. It is used for managing content, documents, social networking sites, websites, business intelligence processes, and web portals. This movie is based on the book of the same name, and is about the almost impossible levels of corruption and stupidity that caused the world-crippling financial crisis from 2007-2010. * were set to true as well. Welcome to the LittleBigPlanet Homebrew Wiki. [00007fcd6a52f5f0] mp4 demux warning: mdat had still 44013 bytes unparsed as samples [00007fcd6a52f5f0] mp4 demux. Media segments should be MP4 (CMAF) with H264/H265 video and AAC/AC3 audio. On May 4, 2012, the remainder of the series aired on Nicktoons until the last episode on February 15, 2013. The end result is a compliant MP4 stream. Rendy; who didn’t think he has anything to do with her, accidentally saw her face. As you can see from the attached log file, any fragments of video track begin with a dts that is not the continuation of the previous fragment, while in the audio track, dts grows properly, but both audio and video have tfdt box with the correct timing. MediaInfo A unified display of relevant technical and tag data for A/V files Brought to you by: guillaumeroques , zenitram. mp4 file_av1_encrypted. Compare backup software solutions from more than 490 providers. 명령어 > MP4Box -dash 1000(ms초) -segment-name 쪼개질파일명 대상mp4파일명 예) > MP4Box -dash 1000 -segment-name test sample_track1. In an age of fragmented media consumption, it is becoming an increasingly frequent unique selling point in sport. This screenshot shows a fragmented MP4 which has been segmented using MP4Box with the onDemand profile. It can also produce MPEG-4 Timed Text streams by importing subtitles formats such as srt. exposed" is disabled by default. mp4 No Yes AOT in the program config element (3) does not match the AOT in the m4ac (2) a4-tone-fragmented. All Discussions Screenshots Artwork Broadcasts Videos News Guides Reviews. Duy encouraged this same kind of optimism. For tutoring please call 856. Short summary describing this game. 2000000000000002 8/14/2017. Hong Kong cinema among the finest in the world, a home to icons like Bruce Lee, John Woo and Wong Kar-wai. See also SotA for container formats for a list of these file formats. My understanding of fragmented mp4 is that it is a single file, but internally it is structured as fragments. The most effective way to fix and clean up registry is with the help of special software that safely performs registry cleanup and repair, and tunes up system settings. Early discussion took place on the talk pages of the Main Page and Main Page:English on the original multilingual Wikisource. In case of difficulties, these steps, described on the Wiki page, should resolve the conflict: The necessary kernel module should be automatically loaded. In the midst of the Russian Revolution of 1905, the crew of the battleship Potemkin mutiny against the brutal, tyrannical regime of the vessel's officers. 91 GiB 557 kb/s 1920x1080 | AAC 192 kb/s 2 CH NFO (Click to Show). High Quality MP4 (213. When the DNA is subsequently fragmented with a restriction enzyme, these loci remain linked. ffmpeg version 2. Ruby on Rails blog: Rails 6. Cisco ASA Next-Generation Firewall Fragmented Traffic DoS (cisco-sa-20130626-ngfw) Cisco Unified MeetingPlace Detection; Cisco Unified MeetingPlace Multiple Session Weaknesses; Cisco TelePresence DSP Card Crafted RTP Packet H. MPEG-DASH Created by Moving Picture Experts Group between 2009 and 2012, it uses standard HTTP web servers like HLS. Akito the Exiled # Image Title Original Airdate English Airdate 01 Stage 0. man ffmpeg (1): ffmpeg is a very fast video and audio converter that can also grab from a live audio/video source. The segments formatted as fragmented MP4 stream SHOULD use a timescale for video streams based on the framerate and 44. Presentations made with reveal. Supported video codecs H. To fix it, I set `media. At WWDC 2016, Apple announced support for fragmented MP4 (fMP4) as an alternative to MPEG-TS, which prior to their announcement was the only supported format. fragmented-mp4. I Can recovery MP4 Video From GroPro,with my self-coded software,if you can send me the image file. Bentoは、HLSおよびMPEG-Dashの関連するマニフェストを含むCMAF断片化された MP4 ファイルを作成します。. m3u8 で出力される。. So everything is new and fresh. DVD-Video was the dominant consumer home video format in Asia, North America, Europe, and Australia in the 2000s until it was supplanted by the high-definition Blu-ray Disc. Fragmented MP4. com/videos/play/wwdc2016/504/. (Melbourne) art "scene" is more fragmented, venomously competitive and rancorous than you could possibly imagine. There are a couple of tickets that would seem to benefit from storing revisions of post meta (#11049, #20299). Religious organizations can now ensure their ministries are more accessible to congregants through live and on-demand video streaming. This is a collection of links to these resources, in roughly date order… Jim Gettys (of Alcatel) Bufferbloat: Dark Buffers in the Internet, April 26, 2011. Excise DNA fragments between 300 and 500 base pairs and purify them with a Qiagen gel extraction kit using 2-4 columns depending on the weight of the gel. is able to identifiy two types of fragments: items and tracks (as defined in the ISO Base Media File Format). Visit Stack Exchange. Maximizing revenue means multiplatform monetization. Generally, mixing in Qtractor utilizes three different toolsets:. In true Channel 9 fashion, Joe has responded to your feedback and will continue to engage you in conversation at MIX11. Agarose Gel Electrophoresis Agarose gel electrophoresis separates DNA fragments according to their size. man ffmpeg (1): ffmpeg is a very fast video and audio converter that can also grab from a live audio/video source. Chemistry Innovation is the KTN who took on the mammoth task of bringing together the diverse and fragmented world of the chemistry. You'll notice the sidx and series of moof+mdat boxes. This Recovery example guides you through PhotoRec step by step to recover deleted files or lost data from a reformatted partition or corrupted file system. シスコは Cisco ASA(5500、5500-X、5585-X シリーズ)および IPS(43xx と 45xx)プラットフォーム向け Cisco Services for Intrusion Prevention System(IPS)サポート プログラムの販売終了およびサポート終了の日付を発表します。. fragmented-mp4. Seeking doesn't work. Dynamic exclusion for selected ions was 60 s and a single lock mass at m/z 445. While K-Meleon 76 with uses Gecko 38 ESR, both "media. As earlier our plan is to publish new Beta N releases regularly until Qt 5. Due to its similarities to the original ooze, this stronger slime often gets recognized only as a sub-species, though it's been receiving more recognition with time. enabled and media. (has audio playback problems with VLC and possibly other non-QT players on stereo systems; VLC users should choose one of the other formats). mp4 No Yes AOT in the program config element (3) does not match the AOT in the m4ac (2) a4-tone-fragmented. One example is when a camera is dropped and the battery drops out. Aros/Platforms/68k support. The Plugins section of about:addons lists the "OpenH264 Video Codec provided by Cisco Systems, Inc. (Melbourne) art "scene" is more fragmented, venomously competitive and rancorous than you could possibly imagine. RESOLVED (ajones) in Core - Audio/Video. Seems that enabling the two config options media. Maintaining B2B contact Professional infrastructure, special occasions and memorable experiences: the fervour surrounding sport makes for the perfect hosting platform for forging new business relationships and strengthening existing. It enables organizations to make the right engineering or sourcing decision--every time. The end result is ISO compliant MP4 streams. By default the automatic defragmentation will not be performed when the computer runs on batteries. & Dunn, Peter O. pdf) or read book online for free. Images (0). It is important to notice that the way tracks and codec information is discovered, is out of scope for the mapping of Media Fragments to RTSP. HLS with Fragmented mp4 DRMs HLS: Adobe Access and Vanilla AES DASH: PlayReady and Widevine; Codec Support 4K streaming with SVP on supported platforms DD+ and ATMOS, on supported platforms; Miscellaneous Variety of configuration options to control playback - Bitrate selection, Codec option etc. The bulk of this series is composed of a semi-improvised comedy action drama, where Lewis and Simon play the parts of Xephos, a spaceman, and Honeydew, a dwarf. The above stream has playback issue on quicktime player, with occasional grey frames during the playback. Fragmented MP4. * This code is in the public domain; do with it what you wish. Stranded in a hostile alien world, you must fight to survive. MPEG-4 Config: Audio Stream - ObjectTypeIndication 0x40 MPEG-4 Audio AAC LC - 2 Channel(s) - SampleRate 22050 Self-synchronized If I use DMG to create an HE-AAC v1 from another audiofile (like MP3) it does the full magic on the audio including SBR and magically the explicit SBR signalling is there, see below! mp4box. Group photo from the WoT F2F meeting on 19-20 September 2019 (Some more photos from at the F2F at Hilton). Welcome to the LittleBigPlanet Homebrew Wiki. Once habitat fragmentation is one of the major threats to biodiversity, understanding. MPEG-1 is used with video compact discs (VCDs) while the higher-quality MPEG-2 is used for DVDs. CHK are repaired by Chkdsk or Scandisk in Windows. ffmpeg true media. # From: David Remahl # 0 string caff CoreAudio Format audio file >4 beshort 10 version %d >6 beshort x #----- # Keychain database files 0 string kych Mac OS X Keychain File #----- # Code Signing related file types 0 belong 0xfade0c00 Mac OS X Code Requirement >8 belong 1 (opExpr) >4 belong x - %d bytes 0 belong 0xfade0c01 Mac OS X Code. , a DVD player, or a computer DVD drive with a software. ffmpeg media. These fragmented MP4 video files often use AAC audio codecs and AVC or H. sql, wiki_esa_demo. You may also convert the media files to the desired video format or extract the audio stream and save it separately. ffmpeg true media. 264 Bit Stream Handling DoS; Defending against web-based malware: Spot the smoke, dont wait for fire. enabled is set to false here. enabled true media. "Mighty Joe Young" is an energetic, robust adventure tale: not too cynical, violent or fragmented for kids, not too tame for adults. Start the extraction of a RAR file by drag. This is a collection of links to these resources, in roughly date order… Jim Gettys (of Alcatel) Bufferbloat: Dark Buffers in the Internet, April 26, 2011. Last updated 2016-03-29. Hunt, harvest, craft, advance skills, and build using local resources along with technology from your voyage. [mov,mp4,m4a,3gp,3g2,mj2 @ 0x1dfe3c0]Could not find codec parameters (Video: mjpeg, 100x100, 77 kb/s) Uses objectTypeIndication 0x67 but the extradata is in AudioSpecificConfig format a3b-tone-deprot. I had a recent download delivered as multiple fragmented mp4 files, (Fragments(video=162233,format=mpd-time-csf). fragmented-mp4. Use Contact Lists in AT&T Mail - Email Support. 264 video codecs. One example is when a camera is dropped and the battery drops out. Akito the Exiled # Image Title Original Airdate English Airdate 01 Stage 0. This month, Android version 8. 264 encoding Additions requirements can be found in the SHAREfactory User Manual Page 68. com then come back with an actual specific question. The key problem is that HLS and DASH use different manifest files (the text files that describe where to find the individual segments, essentially like metadata for the stream) and also different segment files. Last updated 2016-03-29. fragmented MP4 A streaming media format based on Part 12 of the MPEG-4 standard (ISO base media file format). At its peak, it fielded millions of warships, logistics vessels and fighters, becoming one of the largest navies in. It can also extract streams from a. Write an MPD file for fragmented MP4 files with a sidx index at the start of the file. 30 risposte 20 hanno questo problema 21791 visualizzazioni; Ultima risposta di jscher2000 5 anni fa. This Internet draft presents a best industry practice for ingesting encoded live media to media processing entities. There are a couple of tickets that would seem to benefit from storing revisions of post meta (#11049, #20299). xml -out file_av1_encrypted. This Recovery example guides you through PhotoRec step by step to recover deleted files or lost data from a reformatted partition or corrupted file system. Zoom out and see the bigger picture, or focus in on an unprecedented level of granular data. Unlike the older MPEG-2 Transport Stream (M2TS) format, which is used in Apple's streaming platform, fragmented MP4 (fMP4) does not multiplex the audio and video together. Maximizing revenue means multiplatform monetization. x 0x00000020 (00032) 6d6c2048 5454502f 312e310d 0a557365 ml HTTP/1. mp4(エムピーフォー)はデジタルマルチメディアコンテナファイルフォーマットである。ビデオやオーディオを格納するのによく用いられ、他にも字幕や静止画なども格納できる。mpeg-4規格の一部で、mpeg-4 part 14(正式にはiso/iec 14496-14:2003、iso/iec jtc 1)で標準化されている。. Forum: Start a New Discussion < > Showing 1-15 of 300 active topics 21 Jun 9, 2019 @ 1:01pm PINNED: 17. Unified Capture can also be used to offer a DVR or PVR feature, that is: viewers creating their own recordings. EMC Isilon is an advanced storage platforms with settings for the most common, but different use-cases. Camilla the Chicken co-hosts with Gonzo. It encompasses multiple muxers and demuxers for multimedia container formats. by Chris Knowlton. unnecessary since Tails 2. ?eng sub? Watch Full Length Le traître*↓↓↓↓↓↓↓↓↓↓↓↓↓↓↓???????????????Ludovica Rampoldi; runtime=2 Hour 25Min; Year=2019; &ref. One example is when a camera is dropped and the battery drops out. It appears Robin Hely, Peter Burke and Jason Maling, all artists, are close friends. This free online English – Arabic dictionary, with translation into phonetics, contains more than 2000 words in its lexicon, which is constantly updated (Wiki). MP4Box -crypt info. Addendum - Historical Note: Prior to the construction of SCP-097's containment wall, instances of what are now known as SCP-2171-1 were occasionally observed to form fragmented 'walls', and at one point a near-complete ring, of 2171 around SCP-097's area of effect. Hello I´m having problems with MP4 files on windows XP it´s weird it looks to me as I am missing some codec because in windows 7 in the same computer works fine. 17 Free & Public MPEG-DASH and HLS Example Test Streams and Datasets. CHK are repaired by Chkdsk or Scandisk in Windows. FFmpeg 命令行和API方式转换rtsp或264成Fragmented MP4 F MP 4 概念f mp 4 ,是适应于现代浏览器的一种流媒体 格式 。 和 mp 4 格式 不同的是,以往的 mp 4 格式 化也分为 h eader信息和payload信息,一个大的 mp 4 就会有一个很大的头信息,不适合与现在的网络环境。. mp4 No Yes AOT in the program config element (3) does not match the AOT in the m4ac (2) a4-tone-fragmented. Creator: ngoutte Created: 2010-10-12 Updated: 2013-04-03 ngoutte - 2010-10-12 I would like to know if Bento4 can create MP4 fragmented files ? ISMV and F4F Files are based on ISO 14496-12 but are not ISO MP4 File. Android TV boxes are becoming enormously popular. 2013 18:53, schrieb simon mares: >> Just use "-movflags faststart". Forum: Start a New Discussion < > Showing 1-15 of 300 active topics 21 Jun 9, 2019 @ 1:01pm PINNED: 17. Little is said of Hitler's earlier years before World War 1 so here it is. Current estimate for Qt 5. After all the calculation behind "Godzilla" or "Armageddon," it has a kind of innocence. Navigation. [DONE] Container parser with fragmented mp4 support - Chris Pearce [DONE] MP4 playback on Windows Vista, 7 and 8 [DONE] VP9 support on all platforms; 2014 Q1 proposed Memory management. Nginx with cache locking is needed because Apache's own cache locking works only as a hint and is not reliable. By utilizing serial analysis we are able to to minimize the errors in detecting the fragmentation points. DASH is a standardized file format for HTTP-based adaptive streaming that is similar in form and function to Apple's HLS or Microsoft's Smooth Streaming. El formato de archivo Au es un formato de archivo de audio introducido por Sun Microsystems. The MPEG-DASH's "ondemand" and "live" profiles are supported. 1 which use Gecko 31 ESR with "media. SharePoint is server software that's allied with document management, intranet and with content management. Mixing in Qtractor, like most digital audio workstation software, is modeled after mixing on real-world equipment. The MPEG-DASH’s “ondemand” and “live” profiles are supported. l'àudio/vídeo/text. This movie is based on the book of the same name, and is about the almost impossible levels of corruption and stupidity that caused the world-crippling financial crisis from 2007-2010. Wilson & MacArthur's work in 1963. tv forums for more help. The lion is a big cat belonging to the Panthera genus and family Felidae. Fragmented mp4 file doesn't play back video properly (audio works) [00007fcd6a52f5f0] mp4 demux warning: mdat had still 44013 bytes unparsed as samples. From Fraps to MeGUI By Kung-Fu Jesus If you're capturing a PC game, chances are you're using Fraps. The Wiki page listed above also covers work around behavior to account for issues with module probing. HLS Encoding. The videos (mp4) take approx 20 seconds to start and stop playing or skip around abit. ½ XProgramming. OpenGL as Linux/BSD default video output. I know Bento4 can read moof boxes but can it create them ?. The game takes place prior to The Repopulation timeline but rather than being an MMO, it is single player and co-op. For 3GPP and MPEG-4 containers, the moov atom must precede any mdat atoms, but must succeed the ftyp atom. HTTP Live Streaming (also known as HLS) is an HTTP-based media streaming communications protocol implemented by Apple Inc. This MP4 type has the best video player and editor compatibility. 1 8/14/2015. At its peak, it fielded millions of warships, logistics vessels and fighters, becoming one of the largest navies in. In September 2005, a warning was placed on Talk:Main Page that it was only for discussion of the Main Page, and all general discussion was moved to Wikisource:Scriptorium. IBM Developer exists to bring coders together as a community, to tap into our collective innovative power. MS Researchers Jim Larus and Galen Hunt lead an intriguing project where they've built an OS using managed code. Please take a tour now & test Beta1 packages. Stack Exchange network consists of 177 Q&A communities including Stack Overflow, the largest, most trusted online community for developers to learn, share their knowledge, and build their careers. The new Firefox uses ffmpeg by default, instead of gstreamer. Forum: Start a New Discussion < > Showing 1-15 of 300 active topics 21 Jun 9, 2019 @ 1:01pm PINNED: 17. Use ffmpeg to convert an audio file to VBR AAC in an M4A (MP4) container: ffmpeg -i input. The sidx is the Segment Index and stores meta data of the precise byte range locations of the moof+mdat segments. These ideas have a long history and have been examined by many, including Darwin and Wallace in the 19th century to E. RESOLVED (ajones) in Core - Audio/Video. 1 -b:v 15000k -ac 2 -c:a aac -b:a 320k -f mp4 "Terminator_2_3dff. The files are delivered in a fragmented MP4 format and are stored as ISMV files. The first profile facilates active media processing and is based on the fragmented MPEG-4 format. Архитектура. Make it a dpg. RFC 3016 RTP Payload Format for MPEG-4 Audio/Visual November 2000 the audio data. Rendy; who didn’t think he has anything to do with her, accidentally saw her face. Microsoft and Adobe also have jointly contributed to this white paper. 1086 (08 Apr 2015). 7 Data Recovery is fixes: accidental file deletion, partition errors, corrupt iPhone file retrieval, SD card issues, and fixing hard drives that stopped booting. The most effective way to fix and clean up registry is with the help of special software that safely performs registry cleanup and repair, and tunes up system settings. Dec 26, 2006· 15,000 tonnes of limestone fragmented in 1/2 a second 110 foot highwall. applicable for file formats conforming to the ISO Base Media File Format (aka MPEG-4 part 12 or ISO/IEC 14496-12). From Fraps to MeGUI By Kung-Fu Jesus If you're capturing a PC game, chances are you're using Fraps. The reason seems > to be the qtdemux that is forwarding the seek events upstream if the mp4 > file is fragmented. Make sure this is what you intended. [mov,mp4,m4a,3gp,3g2,mj2 @ 0x1dfe3c0]Could not find codec parameters (Video: mjpeg, 100x100, 77 kb/s) Uses objectTypeIndication 0x67 but the extradata is in AudioSpecificConfig format a3b-tone-deprot. 0840 I am a registered nurse who helps nursing students pass their NCLEX. net) wrote:. Other "fftools" USE_EXPAND flag values Use Flag Description; fftools_aviocat: cat's a URL to another one, useful for dumping streams. txt), PDF File (. 1 KHz or 48 KHz for audio streams or any another timescale that enables integer increments of the decode times of fragments signalled in the "tfdt" box based on this scale. mediasource. HTTP Live Streaming (also known as HLS) is an HTTP-based adaptive bitrate streaming communications protocol developed by Apple Inc. Windows 10 troubleshooting help and support forum, plus thousands of tutorials to help you fix, customize and get the most from Microsoft Windows 10. Writing a fragmented file has the advantage that the file is decodable even if the writing is interrupted (while a normal MOV/MP4 is undecodable if it is not properly finished), and it requires less memory when writing very long files (since writing normal MOV/MP4 files stores info about every single packet in memory until the file is closed). fragmented-mp4. 6 for Windows 軟體資訊交流、介紹、教學與下載,IsoBuster 是一個屢獲殊榮,高度專業化和易於使用的 CD,DVD 和藍光(BD,HD DVD)數據恢復工具的個人電腦。. Write DASH compatible fragmented MP4 frag_discont E Signal that the next fragment is discontinuous from earlier ones Patches should be submitted to the ffmpeg-devel mailing list and not this bug tracker. It was first performed in the Lyttelton auditorium of the National Theatre, London, on 27 January 2015 (previews from 20 January). fragmented mp4 files indeed need special parsers (iirc also 3ivx' mp4 directshow splitter supports it) and i kinda doubt that they are having smaller headers/overhead as drachir mentioned Between the weak and the strong one it is the freedom which oppresses and the law that liberates (Jean Jacques Rousseau). Currently, wild lions are found in large parts of sub-Saharan Africa and India. In this post, we clarify what MP4Box uses and does. Part 1 Adolf Hitler's Childhood. Question 1: How to create with MP4Box m3u8 for HLS with fragmented mp4 (instead of MPEG-TS fragments) Question 2: When creating with MP4Box -dash MPD with fragmented mp4, is it possible/how to create an m3u8 pointing to the existing fragmented mp4 files previously created with MP4Box -dash. By default the automatic defragmentation will not be performed when the computer runs on batteries. Its low computational footprint means that it plays well on high-end desktops but also on low-powered devices like tablets or phones. In this one hour special, Gonzo pays tribute to the weirdest acts from The Muppet Show, and tries to hide the fact that he's hosting from the inside of a trailer instead of a posh mansion. in fish Double Circulatory Systems e. Unlike the older MPEG-2 Transport Stream (M2TS) format, which is used in Apple's streaming platform, fragmented MP4 (fMP4) does not multiplex the audio and video together. fragmented-mp4. fragmented MP4 A streaming media format based on Part 12 of the MPEG-4 standard (ISO base media file format). For example, NGINX Plus can transmux to HLS and HDS but not VOD content to DASH. Creator: ngoutte Created: 2010-10-12 Updated: 2013-04-03 ngoutte - 2010-10-12 I would like to know if Bento4 can create MP4 fragmented files ? ISMV and F4F Files are based on ISO 14496-12 but are not ISO MP4 File. l'àudio/vídeo/text. Incomplete files - or not finalised. It costs money and requires a good computer, but it owns. sidxindex fftools USE_Expand flag. MP4Box is a multimedia packager, with a vast number of functionalities: conversion, splitting, hinting, dumping and others. Define fragmented. With the ever-growing number of individuals connected online and able to access high-quality video content remotely, places of worship can help share their mission and message whenever, wherever, and however audiences view streaming content. Is the "fragment" term used above consistent with "fragmented MP4" (pushed by Microsoft and Adobe)? Latter is a single big file of pre-recorded video. 1 which use Gecko 31 ESR with "media. It would require a custom module to parse and modify the atom structure of the fragmented MP4 file. Molecular Ecology 12 (12): 3335-47. This will likely increase the time it. Free RAR Extract Frog is a new extraction tool for RAR-archives that supports spanned archives as well as the decompression of password protected files. org Links - Conferences, workshops, books, sites. Play online or in single player mode. The sync samples table of the MP4 movie is used to calculate the start and durations of a chunk. But we're still 1. The Media Initialization. As part of the IBM Developer community you can meet us at upcoming events, connect with a developer expert, become an IBM technology advocate, or keep up with the news in our quickly evolving technology landscape. Christopher Bollyn is a well-travelled writer and an investigative journalist who has done extensive research into the events of September 11, 2001, the conflict in Middle-East and the health effects caused by exposure to depleted uranium. Stranded in a hostile alien world, you must fight to survive. Religious organizations can now ensure their ministries are more accessible to congregants through live and on-demand video streaming. Write an MPD file for fragmented MP4 files with a sidx index at the start of the file. MP4Box is a multimedia packager, with a vast number of functionalities: conversion, splitting, hinting, dumping and others. fragmented MP4 A streaming media format based on Part 12 of the MPEG-4 standard (ISO base media file format). Media is usually encoded as MPEG-4 (H. USB Video Import supports the following file formats: MP4, M4V, or MOV files using H. exposed" is disabled by default. exposed" because "media. November 10th, 2016 MPEG-DASH sample streams and HLS test streams or m3u8 streams as they are often called, are important tools that you should have available throughout your development process. I don’t think its been caused by Trump, but the ineptitude of his son-in-law and the others in his entourage are I think accellerating the long term process set in motion by Bush Jnr to realign the Middle East in a way that isn’t very favourable to the US or Israel. Occasionally a camera will not finalize a file. 264, MPEG-4 Part 10, or MPEG-4 AVC. The lion is the second largest cat species in the world after the tiger. * This code is in the public domain; do with it what you wish. Due to its similarities to the original ooze, this stronger slime often gets recognized only as a sub-species, though it's been receiving more recognition with time. A new activity area is also opening up called the Haunted Forest. 727 f7189696. fragmented-mp4. However now, with Apple introducing support for fragmented MP4s within HLS, in theory you should be able to encode content once and then deliver that same file using either HLS. [DONE] Fragmented MP4 Parser [DONE] WebM VP9 Support; DOM [DONE] Norway worker work (dougt / khuey / nikhil) This ended up being basically no work, but a bunch of discussions to further understand the needs of the gaia team. With access to over 2,600+ verified user reivews you'll be able to select the a software with the features and capabilities you need. This MP4 type has the best video player and editor compatibility. Related GIFs. This happened to me as well. Related Global Research articles on the March to War in the Middle East. 9 per month. js is an open source HTML presentation framework. The GStreamer Conference 2016 will take place on 10-11 October 2016 in Berlin (Germany), and will take place in the same week as the Embedded Linux Conference Europe. Define fragmented. Can someone explain to me how these fragments can be addressed in the. FFmpeg 命令行和API方式转换rtsp或264成Fragmented MP4 F MP 4 概念f mp 4 ,是适应于现代浏览器的一种流媒体 格式 。 和 mp 4 格式 不同的是,以往的 mp 4 格式 化也分为 h eader信息和payload信息,一个大的 mp 4 就会有一个很大的头信息,不适合与现在的网络环境。. ACG 196,280 views. I know Bento4 can read moof boxes but can it create them ?. Archives Historical. MPEG-2 TS MPEG-2 TS Fragments MP4: Fragments MP4: Emmagatzematge de fitxers. mp4 We show you where to find all of the Destiny 2: Warmind Lost Memory Fragments in this video walkthrough. Unlike the older MPEG-2 Transport Stream (M2TS) format, which is used in Apple's streaming platform, fragmented MP4 (fMP4) does not multiplex the audio and video together. The access pattern for streaming video is 'random', so it is recommended to set the storage to the recommended settings for this pattern. pdf - Spumonte. This will likely increase the time it. Segment formats are based on fragmented ISOBMFF (MP4). 4,718 Photos. The movie is funny, fascinating, and deeply depressing. Shadow of Israphel is a partly scripted Minecraft series, uploaded onto the main channel. It encompasses multiple muxers and demuxers for multimedia container formats. ; FFmpeg Beginner's handbook Chinese Version by Steven Liu, describes FFmpeg common use method in Chinese, from command line to API usage. mp4: [COLOR="Red"]2242 extents[/COLOR] found, perfection would be 8 extents $ /opt/bin/dd if=. 264 video codecs. Continue reading Aspect Ratios →. While differences between the two exist, ultimately both should be used together for the most effective outcome. Please read our guidelines before editing. mp4 No Yes AOT in the program config element (3) does not match the AOT in the m4ac (2) a4-tone-fragmented. mp4 This will split it into roughly 2 second chucks, split at the relevant keyframes, and will output to the files cam_out_h2640001. Players will be able to play offline, on official servers, in a LAN network with a host, or rent a private game server from one of several hosting. EMC Isilon is an advanced storage platforms with settings for the most common, but different use-cases. ACG 196,280 views. Iskcon devotees want to develop their love for Krishna. Other "fftools" USE_EXPAND flag values Use Flag Description; fftools_aviocat: cat's a URL to another one, useful for dumping streams. It can import MPEG-4 video (H. With access to over 2,600+ verified user reivews you'll be able to select the a software with the features and capabilities you need. MP4 format, you'll need to continue to use StreamType live-record or the Live Stream Record module. 7 Data Recovery is fixes: accidental file deletion, partition errors, corrupt iPhone file retrieval, SD card issues, and fixing hard drives that stopped booting. The game takes place prior to The Repopulation timeline but rather than being an MMO, it is single player and co-op. 4 release * Core:Fix MSVC++ builds do not run when the path to user directory contains non-ASCII characters * Decoder:Fix DXVA2 HW accelerated decoding on Windows 7 * Decoder. The Lost Woods is in the Great Hyrule Forest Region. HTTP Live Streaming (also known as HLS) is an HTTP-based adaptive bitrate streaming communications protocol developed by Apple Inc. mp4 of=/dev/null 1840984+1 records in 1840984+1 records out 942584097 bytes (943 MB) copied, 55,6186 s, [COLOR="Red"]16,9 MB/s[/COLOR]. Re: [SOLVED] No h264 playback in Firefox since a few weeks Thanks for your reply. Blob Detection Python. The official site of John Denver, an American singer-songwriter, actor, activist and humanitarian. Unlike the previous three movies, it is an entirely new story taking place one full year after Lelouch vi Britannia's "Zero Requiem" plan. : Pdf Ftk Ug FTK_UG 6. 11 May 2020 Whistle-blower campaign about the easyJet –Airbus scandal Stelios is willing to offer a reward of up to £5,000,000 (five million pounds sterling) in cash out of his own money to any whistle-blower who provides useful information that leads to the cancellation of the order for easyJet to buy. 54 KiB) Welcome To /QResearch/ General We hold these truths to be self-evident: that all men are created equal; that they are endowed by their Creator with certain unalienable rights; that among these are life, liberty, and the pursuit of happiness. Thomas Cowan, M. Can anybody please let me know, how this can be achieved. Do make sure you have enough free disk space, or the recordings may cut short (FLV or fragmented MP4) or corrupt (MP4 without options). See the full details in the post "Politics and News Rules & Guidelines. We spend countless hours researching various file formats and software that can open, convert, create or otherwise work with those files. 0 Is there any method of knowing the length of mp4 video in a packet? I have captured packets for a 27 second youtube video. after reboot open in Tor browser "about:config", in there set these values: media. fragmented-mp4. When I am configuring the recording tab I only see the option to use nvenc_hevc when choosing mp4 as container. At WWDC 2016, Apple announced support for fragmented MP4 (fMP4) as an alternative to MPEG-TS, which prior to their announcement was the only supported format. Influential indie icons who welded classic pop influences to jagged, roaring guitars and Black Francis' fragmented songwriting. I call That piece a wonder, now: Frà Pandolf’s hands Worked busily a day, and there she stands. I already have both of these packages. 9 percent among smartphone owners. Top Bengali movies to watch on Netflix, Hulu, Amazon Prime & other Streaming services, out on DVD/Blu-ray or in cinema's right now. Бьюсь уже вторую неделю, ничего не помогает. Adjust -crf and -preset according to your needs as described in FFmpeg Wiki: H. Hello I´m having problems with MP4 files on windows XP it´s weird it looks to me as I am missing some codec because in windows 7 in the same computer works fine. MP4 - uses the H. I tried MP4Box -sync 100 -frag 100 -out command. And about a zoologist. Inception 720px 1280p Free HD 720P Streaming Online148 min; 9,3 of 10; Directors - Christopher Nolan; Abstract - Mr. Unlike the older MPEG-2 Transport Stream (M2TS) format, which is used in Apple's streaming platform, fragmented MP4 (fMP4) does not multiplex the audio and video together. block is fragmented into. Like all HTTP-based adaptive streaming technologies, there are two types of files in the final output packaging: fragmented video files (or byte-range requests for segments within a single file) and manifest files, which identify the location. AAC audio does not play for Fragmented MP4 files containing a custom hint track, whereas it does for Fragmented MP4 files without the hint track. , 2005 ) was used for internal mass. Hi, 1) I have a GTX 970 and I am trying to record video with the nvenc_hevc encoder in a mkv file. Updated file as of 2020-03-10 fix for the file size guessing Old news:-Updated file as of 2020-03-06 cause the whole YouTube interface change -Updated file as of 2020-01-25 as YouTube Code has changed. Direct download via magnet link. Stelios offering GBP5m to a whistle-blower about the easyJet-Airbus scandal 11 May 2020. Fragmented MP4. Play online or in single player mode. It was a part of Windows Essentials software suite and offered the ability to create and edit videos as well as to publish them on OneDrive, Facebook, Vimeo, YouTube, and Flickr. I tried MP4Box -sync 100 -frag 100 -out command. * Movie Info * Timescale 90000 - Duration 126700449 Fragmented File no - 2 tracks File Brand isom - version 0 File has no MPEG4 IOD/OD Track # 1 Info - TrackID 1 - TimeScale 1001 - Duration 1409189 Media Type "vide" - Media Sub Type "MPEG" - 33753 samples MPEG-4 Config: Visual Stream. m4a libmp3lame¶. Pantos, Ed. 264, MPEG-4 Part 10, or MPEG-4 AVC. Overview ↓ Biography ↓ Discography ↓ Songs ↓ Credits ↓ Related ↓. Global Research strives to shine light on the under-reported, less known injustices ignored or buried. ) 05 水 TEMPLE ユニバーサル 09 限られたメモリ 11 I NEED YOU あなたと私は永遠 Original: Teena Marie - Naked to the World (from the album Naked to the World, 1988). mp4 video file). Kodi (formally known as XBMC) is an award-winning free and open source (GPL) software media player and entertainment hub that can be installed on Linux, OSX, Windows, iOS, and Android, featuring a. I have been a nurse since 1997. exposed" is disabled by default. 931 [M] [E] qanon-research. It correctly removes the initial specified seconds specified with -ss but then keeps going to the end of the input with the copy. Details Duration: 2. OpenGL as Linux/BSD default video output. js를 통해 확인 가능; video tag 를 통한 재생 가능; mp4 파일 구조도 알아볼 예정. PlutoniumKun January 31, 2018 at 7:29 am. Mining is a non-combat activity that allows players to excavate various minerals and ores used as resources in Cetus or Fortuna. I tried on a VirtualBox VM and got the same results. A JPM file may be self-contained in that it contains all the data needed to composite the page or pages in the file. Díky použití rádiových vln není vázán na místo, kde končí telefonní přípojka, jako je tomu u pevného telefonu. The video stream encapsulated is 1080p @30fps. Images (0). MPEG defines tools to compress content such as audio-visual information into elementary streams. My guess is that the omx265dec is unable to handle fragmented mp4 frames. The above stream has playback issue on quicktime player, with occasional grey frames during the playback. fragmented-mp4. Presentations made with reveal. I want to read the TCP data segment in any one of the packets and guess or calculate its length. Play online or in single player mode. The segments formatted as fragmented MP4 stream SHOULD use a timescale for video streams based on the framerate and 44. As such, fMP4 file storage is location agnostic and can store audio- or video-only elementary streams in separate locations that are addressable from XML-based manifest files. al servidor. Excise DNA fragments between 300 and 500 base pairs and purify them with a Qiagen gel extraction kit using 2-4 columns depending on the weight of the gel. Part 1 Adolf Hitler's Childhood. The Wiki page listed above also covers work around behavior to account for issues with module probing. Homepage: Download instructions: Documentation: Support: Develop: About. Tails - Enable MP4 playback in Tor browser. Destiny-2---Lost-Memory-Fragments-23-mp4-1526947853513. With Qtractor, as with hardware mixing equipment, you are able to define inputs, outputs, auxiliary sends and returns, effects, and automation. Also, the M3U8 file will list the file names as. The HD Live to VOD and Playout Automated Workflow describes the use of Unified Capture for automated content creation for catch-up tv. how do i play and edit gif? It would be nice to have the option to edit a property of multiple selected fragments in one go. The libavformat library provides a generic framework for multiplexing and demultiplexing (muxing and demuxing) audio, video and subtitle streams. 4,718 Photos. MP4 - uses the H. The Slime (amalgoomated) is a special breed of the goobiquitous Slime in the Dragon Quest series that was introdoozed all the way back in Dragon Quest IV: Chapters of the Chosen. ) 05 水 TEMPLE ユニバーサル 09 限られたメモリ 11 I NEED YOU あなたと私は永遠 Original: Teena Marie - Naked to the World (from the album Naked to the World, 1988). It has a sub-Stand ability, Epitaph (エピタフ (墓碑銘) Epitafu), which was primarily introduced by Vinegar Doppio, Diavolo's split personality. We have 136 pages. MP4, A Vasodilatory PEGylated Hemoglobin. 명령어 > MP4Box -dash 1000(ms초) -segment-name 쪼개질파일명 대상mp4파일명 예) > MP4Box -dash 1000 -segment-name test sample_track1. Fragmented partition structure on the USB flash drive. By Will Law and Shawn Michels. Governments know it too, which is why there is an unprecedented threat to the independent media and the Internet. But they also let you buy stamina potions each week, so keep vigilant at buying them!. enabled is set to false here. This screenshot shows a fragmented MP4 which has been segmented using MP4Box with the onDemand profile. BUYDRM DRM SERVICES. > Hi, > > > > I'm testing fragmented MP4 files with the playbin pipeline. Agents of Mayhem Review "Buy, Wait for Sale, Rent, Never Touch?" Updated no Micros check pin comment - Duration: 13:31. Do make sure you have enough free disk space, or the recordings may cut short (FLV or fragmented MP4) or corrupt (MP4 without options). Fragments MP4. In fragmented MP4 (fMP4), elementary streams are not multiplexed and are independently stored separate from metadata, as noted above. Media segments should be MP4 (CMAF) with H264/H265 video and AAC/AC3 audio. You could think of a network packet analyzer as a measuring device for examining what’s happening inside a network cable, just like an electrician uses a voltmeter for examining what’s happening inside an electric cable (but at a higher level, of course). from fragmented network of software. It can also produce MPEG-4 Timed Text streams by importing subtitles formats such as srt. NTFS Data Recovery Toolkit is a set of tools for analyzing problems with NTFS partitions and files, and Data Recovering in Manual and Automated modes. Download FFmpeg builds for Windows or macOS, available as LGPL or GPL. 15 releasing wiki. It was a part of Windows Essentials software suite and offered the ability to create and edit videos as well as to publish them on OneDrive, Facebook, Vimeo, YouTube, and Flickr. mp4 mp4box 명령어에는 여러 옵션들이 포함되어 있음. Using a fragmented MP4 via http or as a local file. fragmented-mp4. Bentoは、HLSおよびMPEG-Dashの関連するマニフェストを含むCMAF断片化された MP4 ファイルを作成します。. We have 136 pages. mp4 mp4box 명령어에는 여러 옵션들이 포함되어 있음. 30 risposte 20 hanno questo problema 21791 visualizzazioni; Ultima risposta di jscher2000 5 anni fa. Absorbed trinkets do not take up a trinket slot and act as passive effects. mp4 -c:a copy -c:v copy -f mp4 -movflags dash fragmented. m4v} Where can I get spare parts for my Humax? Try Humax customer service on 0344 318 8800 How Can I fix / Get around problem XYZ? You could have a look at our Fixes & Work Arounds Page. It is the first film in the It film series as well as being the second adaptation following Tommy Lee Wallace's 1990 miniseries. enabled and media. All Discussions Screenshots Artwork Broadcasts Videos News Guides Reviews. IIS Smooth Streaming provides users with a truly compelling way to watch the best-possible-quality streaming video. 【Get Price】 Great-Ayton-Quarry Photo Album - Pinkbike. An incomplete or isolated portion; a bit: overheard fragments of their conversation; extant fragments of an old manuscript. While editing Posts/Pages the advanced-sortables was missing a visible border and it was of 0px height so kind of hard to even drag a postbox there even if you knew it existed. Chemistry Innovation is the KTN who took on the mammoth task of bringing together the diverse and fragmented world of the chemistry. It’s designed to replace Microsoft’s older browser. It can also extract streams from a. MPEG-DASH Created by Moving Picture Experts Group between 2009 and 2012, it uses standard HTTP web servers like HLS. Fragmented MP4 Forum: Open Discussion. Define forensic. Wilson & MacArthur's work in 1963. A Tinder date gone astray leaves famous fitness selfie queen, Barbi, lost in the wilderness trying to survive despite Homeland Security, alien death rays and zero cell service. These fragmented MP4 video files often use AAC audio codecs and AVC or H. I already have both of these packages. mediasource. It is used for managing content, documents, social networking sites, websites, business intelligence processes, and web portals. My guess is that the omx265dec is unable to handle fragmented mp4 frames. m4v} Where can I get spare parts for my Humax? Try Humax customer service on 0344 318 8800 How Can I fix / Get around problem XYZ? You could have a look at our Fixes & Work Arounds Page. You'll notice the sidx and series of moof+mdat boxes. this is a file that contains 10000 premium words for your use. 意志 refers to something having will, intentions, or purpose and (from my understanding) the ability to make decisions and have the ability to make choices from reasons, essentially. Support for fragmented MP4, Wave/RF64 files. libav) and then I found the "How to write a video player in less than 1k lines" tutorial. 0 12/1/2014. The sidx is the Segment Index and stores meta data of the precise byte range locations of the moof+mdat segments. exposed" because "media. enabled*, and *media. A new activity area is also opening up called the Haunted Forest. As earlier our plan is to publish new Beta N releases regularly until Qt 5. For other languages, see: Opening Theme/Lyrics in Different Language Trivia. Support for fragmented MP4, Wave/RF64 files. fragmented MP4 A streaming media format based on Part 12 of the MPEG-4 standard (ISO base media file format). This will likely increase the time it. [DONE] Container parser with fragmented mp4 support – Chris Pearce [DONE] MP4 playback on Windows Vista, 7 and 8 [DONE] VP9 support on all platforms; 2014 Q1 proposed Memory management. 104 Duration: 00:01:49. by Chris Knowlton. This Internet draft presents a best industry practice for ingesting encoded live media to media processing entities. xml -out file_av1_decrypted. HTTP Live Streaming (HLS) is an HTTP-based media streaming protocol implemented by Apple. fragmented-mp4. MP4: partial support for fragmented MP4 Vorbis: better support for metadata and cover art AVI: better support for tags and extended metadata Support for FLAC, Atrac and some ADPCM in AVI Support for DV data type 1 in AVI and 12 bits DV Audio Support for total number of tracks in major container Support for Cook and Atrac in MKV. fragmented synonyms, fragmented pronunciation, fragmented translation, English dictionary definition of fragmented. In the midst of the Russian Revolution of 1905, the crew of the battleship Potemkin mutiny against the brutal, tyrannical regime of the vessel's officers. Johnson, Jeff A. This doubled the storage cost. ½ XProgramming. With Vera VanGuard, Paul Logan, Amy Johnston, Kyle Clarke. This free online English – Arabic dictionary, with translation into phonetics, contains more than 2000 words in its lexicon, which is constantly updated (Wiki). 0 Rincewind Thank you for your work on VLC. Also known as H. Season 1 Episodes are listed chronologically in relation to Code Geass: Lelouch of the Rebellion rather than their release date in the real world. Details Duration: 2. maybe i shouldn't hve repeated it cuz if anyone had known about it they would have told me already. IIS Smooth Streaming provides users with a truly compelling way to watch the best-possible-quality streaming video. Grammar A sentence fragment. Make it a dpg. Christopher Bollyn is a well-travelled writer and an investigative journalist who has done extensive research into the events of September 11, 2001, the conflict in Middle-East and the health effects caused by exposure to depleted uranium. Tails - Enable MP4 playback in Tor browser. Kolibri has three parts: Kolibri launcher, Kolibri server, and Kolibri web app. Web application. 0 Rincewind Thank you for your work on VLC. 000000, bitrate: 31 kb/s Stream #0:0(und): Audio: aac (HE-AACv2) (mp4a / 0x6134706D), 44100 Hz, stereo, fltp, 30 kb/s (default) Metadata: handler. HLS with Fragmented mp4 DRMs HLS: Adobe Access and Vanilla AES DASH: PlayReady and Widevine; Codec Support 4K streaming with SVP on supported platforms DD+ and ATMOS, on supported platforms; Miscellaneous Variety of configuration options to control playback - Bitrate selection, Codec option etc. mp4 and DASH_1. Mixing in Qtractor, like most digital audio workstation software, is modeled after mixing on real-world equipment. 104 Duration: 00:01:49. [mov,mp4,m4a,3gp,3g2,mj2 @ 0x1dfe3c0]Could not find codec parameters (Video: mjpeg, 100x100, 77 kb/s) Uses objectTypeIndication 0x67 but the extradata is in AudioSpecificConfig format a3b-tone-deprot.